古哥論壇

 找回密碼
 注冊(分享大片)
查看: 1720|回復: 117
打印 上一主題 下一主題

[喪尸樂園2]2019.1080p.BluRay.REMUX.AVC.DTS-HD.MA.5.1-FGT 25.99GB

  [復制鏈接]
跳轉到指定樓層
1#
發表于 2019-12-29 23:18:48 | 只看該作者 回帖獎勵 |倒序瀏覽 |閱讀模式
4K天堂


◎譯  名 喪尸樂園2 / Zombieland 2 / 喪尸樂園2:雙擊 / 喪尸樂園:連環尸殺(港) / 僵尸之地2 / 僵尸之地2:雙擊 / 尸樂園:臟比雙拼(臺)
◎片  名 Zombieland: Double Tap
◎年  代 2019
◎產  地 美國
◎類  別 喜劇 / 動作 / 恐怖
◎語  言 英語
◎上映日期 2019-10-18(美國)
◎IMDb評分 7.4/10 from 1061 users
◎IMDb鏈接 https://www.imdb.com/title/tt1560220
◎豆瓣評分 0/10 from 0 users
◎藍光高清   http://www.4ktt.com
◎片  長 99分鐘
◎導  演 魯本·弗雷斯徹 Ruben Fleischer
◎編  劇 戴夫·卡拉漢姆 Dave Callaham / 瑞特·里斯 Rhett Reese / 保羅·韋尼克 Paul Wernick
◎主  演 艾瑪·斯通 Emma Stone
      伍迪·哈里森 Woody Harrelson
      杰西·艾森伯格 Jesse Eisenberg
      阿比蓋爾·布蕾斯琳 Abigail Breslin
      佐伊·達奇 Zoey Deutch
      比爾·默瑞 Bill Murray
      羅莎里奧·道森 Rosario Dawson
      丹·艾克羅伊德 Dan Aykroyd
      阿萬·喬賈 Avan Jogia
      盧克·威爾遜 Luke Wilson
      托馬斯·米德蒂奇 Thomas Middleditch
      瑞秋·魯特雷爾 Rachel Luttrell
      蒂莫西·卡爾 Timothy Carr
      伊恩·格雷格 Ian Gregg
      塞爾吉奧·布里奧內斯 Sergio Briones
      迪索·拉莫斯 Diezel Ramos
      MWW Michael Wilkerson
      Julia Vasi
      Jessica Medina

◎簡  介
  《僵尸之地》是魯本·弗雷斯徹的導演處女作,上映后好評如潮——獲得了爛番茄89%的驚人好評率,此片一舉奠定了魯本在好萊塢商業領域的地位。首映周末以2500萬美元登頂冠軍的《僵尸之地》,是受到幾年前《僵尸肖恩》的啟發進行創作的,影片講述了一種致命病毒席卷了美國,只要被病毒感染,就會變成僵尸。最終,只有幾個幸存者沒有被感染病毒,決定逃離,獲得生存的機會。兩個性格迥異的男人湊到了一起,前者對待僵尸的進攻別有心得(制定了一大堆“規則”),后者則是個暴力崇尚者,企圖殺光所有的僵尸。在他們逃亡的途中,邂逅了兩個精明的女幸存者,他們四人決定一起分享對付僵尸的經驗,獲得逃生的機會。然而,在殺戮過程中,他們遭遇的危險超出了所有人的想象。按照好萊塢賣座片的類型規律,像《僵尸之地》這種投資僅2000多萬美元,沒有一線大牌主演的僵尸片,基本都是爛片集中營的當家老大,但此片的成功卻來的非常迅猛。這全歸功于導演的創意,影片結尾高潮處在游樂園大戰僵尸一段,觀賞性極強。
  《僵尸之地》的主演杰西·艾森伯格、伍迪·哈里森、艾瑪·斯通、阿比蓋爾·布萊斯林,目前已確定愿意回歸劇組參加續集的拍攝,但劇本仍然在創作之中,預計10年上半年開機。
  電影《僵尸之地》(Zombieland)導演魯本.費雷斯徹(Ruben Fleischer)近日在接受采訪時透露《僵尸之地》續集有望2010年年底正式開拍。
  “我們正在與制片方接觸,我們有一些點子它們也非常喜歡。我們肯定會以3D的形式拍攝這部續集。索尼現在已經有自己的3D部門了,我們將在周二(3月2日)參觀索尼的3D部門。我知道所有原班人馬都很激動回歸續集,這將是1部拍攝過程十分精彩有趣的電影。劇本即將開始創作,我希望能在今年年底或者明年年初正式開拍《僵尸之地2》。”
Video
ID : 1
Format : AVC
Format/Info : Advanced Video Codec
Format profile : [email protected]
Format settings : CABAC / 2 Ref Frames
Format settings, CABAC : Yes
Format settings, Reference frames : 2 frames
Format settings, GOP : M=1, N=10
Codec ID : V_MPEG4/ISO/AVC
Duration : 1 h 39 min
Bit rate mode : Variable
Bit rate : 29.8 Mb/s
Width : 1 920 pixels
Height : 1 080 pixels
Display aspect ratio : 16:9
Frame rate mode : Constant
Frame rate : 23.976 (24000/1001) FPS
Color space : YUV
Chroma subsampling : 4:2:0
Bit depth : 8 bits
Scan type : Progressive
Bits/(Pixel*Frame) : 0.600
Stream size : 20.6 GiB (79%)
Title : Zombieland.Double.Tap.2019.1080p.BluRay.REMUX.AVC.DTS-HD.MA.5.1-FGT
Language : English
Default : No
Forced : No

Audio #1
ID : 2
Format : DTS XLL
Format/Info : Digital Theater Systems
Commercial name : DTS-HD Master Audio
Codec ID : A_DTS
Duration : 1 h 39 min
Bit rate mode : Variable
Bit rate : 2 252 kb/s
Channel(s) : 6 channels
Channel layout : C L R Ls Rs LFE
Sampling rate : 48.0 kHz
Frame rate : 93.750 FPS (512 SPF)
Bit depth : 16 bits
Compression mode : Lossless
Stream size : 1.56 GiB (6%)
Title : Zombieland.Double.Tap.2019.1080p.BluRay.REMUX.AVC.DTS-HD.MA.5.1-FGT
Language : English
Default : Yes
Forced : No

Audio #2
ID : 3
Format : AC-3
Format/Info : Audio Coding 3
Commercial name : Dolby Digital
Codec ID : A_AC3
Duration : 1 h 39 min
Bit rate mode : Constant
Bit rate : 640 kb/s
Channel(s) : 6 channels
Channel layout : L R C LFE Ls Rs
Sampling rate : 48.0 kHz
Frame rate : 31.250 FPS (1536 SPF)
Bit depth : 16 bits
Compression mode : Lossy
Stream size : 453 MiB (2%)
Title : Zombieland.Double.Tap.2019.1080p.BluRay.REMUX.AVC.DTS-HD.MA.5.1-FGT
Language : English
Service kind : Complete Main
Default : No
Forced : No

Audio #3
ID : 4
Format : AC-3
Format/Info : Audio Coding 3
Commercial name : Dolby Digital
Codec ID : A_AC3
Duration : 1 h 39 min
Bit rate mode : Constant
Bit rate : 640 kb/s
Channel(s) : 6 channels
Channel layout : L R C LFE Ls Rs
Sampling rate : 48.0 kHz
Frame rate : 31.250 FPS (1536 SPF)
Bit depth : 16 bits
Compression mode : Lossy
Stream size : 453 MiB (2%)
Title : Zombieland.Double.Tap.2019.1080p.BluRay.REMUX.AVC.DTS-HD.MA.5.1-FGT
Language : Czech
Service kind : Complete Main
Default : No
Forced : No

Audio #4
ID : 5
Format : AC-3
Format/Info : Audio Coding 3
Commercial name : Dolby Digital
Codec ID : A_AC3
Duration : 1 h 39 min
Bit rate mode : Constant
Bit rate : 640 kb/s
Channel(s) : 6 channels
Channel layout : L R C LFE Ls Rs
Sampling rate : 48.0 kHz
Frame rate : 31.250 FPS (1536 SPF)
Bit depth : 16 bits
Compression mode : Lossy
Stream size : 453 MiB (2%)
Title : Zombieland.Double.Tap.2019.1080p.BluRay.REMUX.AVC.DTS-HD.MA.5.1-FGT
Language : Hungarian
Service kind : Complete Main
Default : No
Forced : No

Audio #5
ID : 6
Format : DTS XLL
Format/Info : Digital Theater Systems
Commercial name : DTS-HD Master Audio
Codec ID : A_DTS
Duration : 1 h 39 min
Bit rate mode : Variable
Bit rate : 2 267 kb/s
Channel(s) : 6 channels
Channel layout : C L R Ls Rs LFE
Sampling rate : 48.0 kHz
Frame rate : 93.750 FPS (512 SPF)
Bit depth : 16 bits
Compression mode : Lossless
Stream size : 1.57 GiB (6%)
Title : Zombieland.Double.Tap.2019.1080p.BluRay.REMUX.AVC.DTS-HD.MA.5.1-FGT
Language : Italian
Default : No
Forced : No

Audio #6
ID : 7
Format : AC-3
Format/Info : Audio Coding 3
Commercial name : Dolby Digital
Codec ID : A_AC3
Duration : 1 h 39 min
Bit rate mode : Constant
Bit rate : 640 kb/s
Channel(s) : 6 channels
Channel layout : L R C LFE Ls Rs
Sampling rate : 48.0 kHz
Frame rate : 31.250 FPS (1536 SPF)
Bit depth : 16 bits
Compression mode : Lossy
Stream size : 453 MiB (2%)
Title : Zombieland.Double.Tap.2019.1080p.BluRay.REMUX.AVC.DTS-HD.MA.5.1-FGT
Language : Polish
Service kind : Complete Main
Default : No
Forced : No

Audio #7
ID : 8
Format : AC-3
Format/Info : Audio Coding 3
Commercial name : Dolby Digital
Codec ID : A_AC3
Duration : 1 h 39 min
Bit rate mode : Constant
Bit rate : 192 kb/s
Channel(s) : 2 channels
Channel layout : L R
Sampling rate : 48.0 kHz
Frame rate : 31.250 FPS (1536 SPF)
Bit depth : 16 bits
Compression mode : Lossy
Stream size : 136 MiB (1%)
Title : Zombieland.Double.Tap.2019.1080p.BluRay.REMUX.AVC.DTS-HD.MA.5.1-FGT
Language : English
Service kind : Complete Main
Default : No
Forced : No

Text #1
ID : 9
Format : UTF-8
Codec ID : S_TEXT/UTF8
Codec ID/Info : UTF-8 Plain Text
Duration : 28 min 6 s
Bit rate : 0 b/s
Count of elements : 7
Stream size : 157 Bytes (0%)
Title : English-FORCED-SRT
Language : English
Default : Yes
Forced : Yes

Text #2
ID : 10
Format : UTF-8
Codec ID : S_TEXT/UTF8
Codec ID/Info : UTF-8 Plain Text
Duration : 1 h 38 min
Bit rate : 78 b/s
Count of elements : 1709
Stream size : 56.3 KiB (0%)
Title : English-SRT
Language : English
Default : No
Forced : No

Text #3
ID : 11
Format : UTF-8
Codec ID : S_TEXT/UTF8
Codec ID/Info : UTF-8 Plain Text
Duration : 1 h 38 min
Bit rate : 91 b/s
Count of elements : 2064
Stream size : 65.7 KiB (0%)
Title : English-SDH-SRT
Language : English
Default : No
Forced : No

Text #4
ID : 12
Format : PGS
Muxing mode : zlib
Codec ID : S_HDMV/PGS
Codec ID/Info : Picture based subtitle format used on BDs/HD-DVDs
Duration : 1 h 38 min
Bit rate : 46.4 kb/s
Count of elements : 2844
Stream size : 32.6 MiB (0%)
Title : English-PGS
Language : English
Default : No
Forced : No

Text #5
ID : 13
Format : PGS
Muxing mode : zlib
Codec ID : S_HDMV/PGS
Codec ID/Info : Picture based subtitle format used on BDs/HD-DVDs
Duration : 28 min 6 s
Bit rate : 487 b/s
Count of elements : 14
Stream size : 100 KiB (0%)
Title : English-FORCED-PGS
Language : English
Default : No
Forced : No

Text #6
ID : 14
Format : PGS
Muxing mode : zlib
Codec ID : S_HDMV/PGS
Codec ID/Info : Picture based subtitle format used on BDs/HD-DVDs
Duration : 1 h 38 min
Bit rate : 51.9 kb/s
Count of elements : 3212
Stream size : 36.5 MiB (0%)
Title : English-SDH-PGS
Language : English
Default : No
Forced : No

Text #7
ID : 15
Format : PGS
Muxing mode : zlib
Codec ID : S_HDMV/PGS
Codec ID/Info : Picture based subtitle format used on BDs/HD-DVDs
Duration : 1 h 38 min
Bit rate : 24.5 kb/s
Count of elements : 3459
Stream size : 17.2 MiB (0%)
Title : Arabic-PGS
Language : Arabic
Default : No
Forced : No

Text #8
ID : 16
Format : PGS
Muxing mode : zlib
Codec ID : S_HDMV/PGS
Codec ID/Info : Picture based subtitle format used on BDs/HD-DVDs
Duration : 1 h 38 min
Bit rate : 39.4 kb/s
Count of elements : 2940
Stream size : 27.7 MiB (0%)
Title : Bulgarian-PGS
Language : Bulgarian
Default : No
Forced : No

Text #9
ID : 17
Format : PGS
Muxing mode : zlib
Codec ID : S_HDMV/PGS
Codec ID/Info : Picture based subtitle format used on BDs/HD-DVDs
Duration : 1 h 38 min
Bit rate : 37.8 kb/s
Count of elements : 3429
Stream size : 26.6 MiB (0%)
Title : Croatian-PGS
Language : Croatian
Default : No
Forced : No

Text #10
ID : 18
Format : PGS
Muxing mode : zlib
Codec ID : S_HDMV/PGS
Codec ID/Info : Picture based subtitle format used on BDs/HD-DVDs
Duration : 1 h 38 min
Bit rate : 42.5 kb/s
Count of elements : 3369
Stream size : 29.9 MiB (0%)
Title : Czech-PGS
Language : Czech
Default : No
Forced : No

Text #11
ID : 19
Format : PGS
Muxing mode : zlib
Codec ID : S_HDMV/PGS
Codec ID/Info : Picture based subtitle format used on BDs/HD-DVDs
Duration : 1 h 30 min
Bit rate : 946 b/s
Count of elements : 70
Stream size : 630 KiB (0%)
Title : Czech-FORCED-PGS
Language : Czech
Default : No
Forced : No

Text #12
ID : 20
Format : PGS
Muxing mode : zlib
Codec ID : S_HDMV/PGS
Codec ID/Info : Picture based subtitle format used on BDs/HD-DVDs
Duration : 1 h 38 min
Bit rate : 46.2 kb/s
Count of elements : 2932
Stream size : 32.5 MiB (0%)
Title : Greek-PGS
Language : Greek
Default : No
Forced : No

Text #13
ID : 21
Format : PGS
Muxing mode : zlib
Codec ID : S_HDMV/PGS
Codec ID/Info : Picture based subtitle format used on BDs/HD-DVDs
Duration : 1 h 38 min
Bit rate : 34.7 kb/s
Count of elements : 3451
Stream size : 24.4 MiB (0%)
Title : Hebrew-PGS
Language : Hebrew
Default : No
Forced : No

Text #14
ID : 22
Format : PGS
Muxing mode : zlib
Codec ID : S_HDMV/PGS
Codec ID/Info : Picture based subtitle format used on BDs/HD-DVDs
Duration : 1 h 38 min
Bit rate : 40.7 kb/s
Count of elements : 2918
Stream size : 28.6 MiB (0%)
Title : Hungarian-PGS
Language : Hungarian
Default : No
Forced : No

Text #15
ID : 23
Format : PGS
Muxing mode : zlib
Codec ID : S_HDMV/PGS
Codec ID/Info : Picture based subtitle format used on BDs/HD-DVDs
Duration : 1 h 38 min
Bit rate : 41.5 kb/s
Count of elements : 3154
Stream size : 29.2 MiB (0%)
Title : Icelandic-PGS
Language : Icelandic
Default : No
Forced : No

Text #16
ID : 24
Format : PGS
Muxing mode : zlib
Codec ID : S_HDMV/PGS
Codec ID/Info : Picture based subtitle format used on BDs/HD-DVDs
Duration : 1 h 38 min
Bit rate : 39.1 kb/s
Count of elements : 3207
Stream size : 27.5 MiB (0%)
Title : Italian-PGS
Language : Italian
Default : No
Forced : No

Text #17
ID : 25
Format : PGS
Muxing mode : zlib
Codec ID : S_HDMV/PGS
Codec ID/Info : Picture based subtitle format used on BDs/HD-DVDs
Duration : 1 h 33 min
Bit rate : 585 b/s
Count of elements : 40
Stream size : 399 KiB (0%)
Title : Italian-FORCED-PGS
Language : Italian
Default : No
Forced : No

Text #18
ID : 26
Format : PGS
Muxing mode : zlib
Codec ID : S_HDMV/PGS
Codec ID/Info : Picture based subtitle format used on BDs/HD-DVDs
Duration : 1 h 38 min
Bit rate : 37.3 kb/s
Count of elements : 3309
Stream size : 26.2 MiB (0%)
Title : Polish-PGS
Language : Polish
Default : No
Forced : No

Text #19
ID : 27
Format : PGS
Muxing mode : zlib
Codec ID : S_HDMV/PGS
Codec ID/Info : Picture based subtitle format used on BDs/HD-DVDs
Duration : 1 h 24 min
Bit rate : 114 b/s
Count of elements : 10
Stream size : 71.3 KiB (0%)
Title : Polish-FORCED-PGS
Language : Polish
Default : No
Forced : No

Text #20
ID : 28
Format : PGS
Muxing mode : zlib
Codec ID : S_HDMV/PGS
Codec ID/Info : Picture based subtitle format used on BDs/HD-DVDs
Duration : 1 h 38 min
Bit rate : 45.7 kb/s
Count of elements : 3218
Stream size : 32.1 MiB (0%)
Title : Portuguese-PGS
Language : Portuguese
Default : No
Forced : No

Text #21
ID : 29
Format : PGS
Muxing mode : zlib
Codec ID : S_HDMV/PGS
Codec ID/Info : Picture based subtitle format used on BDs/HD-DVDs
Duration : 1 h 38 min
Bit rate : 42.9 kb/s
Count of elements : 3129
Stream size : 30.2 MiB (0%)
Title : Romanian-PGS
Language : Romanian
Default : No
Forced : No

Text #22
ID : 30
Format : PGS
Muxing mode : zlib
Codec ID : S_HDMV/PGS
Codec ID/Info : Picture based subtitle format used on BDs/HD-DVDs
Duration : 1 h 38 min
Bit rate : 42.7 kb/s
Count of elements : 3467
Stream size : 30.0 MiB (0%)
Title : Serbian-PGS
Language : Serbian
Default : No
Forced : No

Text #23
ID : 31
Format : PGS
Muxing mode : zlib
Codec ID : S_HDMV/PGS
Codec ID/Info : Picture based subtitle format used on BDs/HD-DVDs
Duration : 1 h 38 min
Bit rate : 33.7 kb/s
Count of elements : 3464
Stream size : 23.7 MiB (0%)
Title : Slovak-PGS
Language : Slovak
Default : No
Forced : No

Text #24
ID : 32
Format : PGS
Muxing mode : zlib
Codec ID : S_HDMV/PGS
Codec ID/Info : Picture based subtitle format used on BDs/HD-DVDs
Duration : 1 h 38 min
Bit rate : 35.9 kb/s
Count of elements : 2682
Stream size : 25.2 MiB (0%)
Title : Slovenian-PGS
Language : Slovenian
Default : No
Forced : No

Text #25
ID : 33
Format : PGS
Muxing mode : zlib
Codec ID : S_HDMV/PGS
Codec ID/Info : Picture based subtitle format used on BDs/HD-DVDs
Duration : 1 h 38 min
Bit rate : 47.7 kb/s
Count of elements : 3465
Stream size : 33.5 MiB (0%)
Title : Turkish-PGS
Language : Turkish
Default : No
Forced : No

Text #26
ID : 34
Format : PGS
Muxing mode : zlib
Codec ID : S_HDMV/PGS
Codec ID/Info : Picture based subtitle format used on BDs/HD-DVDs
Duration : 1 h 38 min
Bit rate : 73.4 kb/s
Count of elements : 3585
Stream size : 51.8 MiB (0%)
Title : English-COMMENTARY-PGS
Language : English
Default : No
Forced : No

Text #27
ID : 35
Format : PGS
Muxing mode : zlib
Codec ID : S_HDMV/PGS
Codec ID/Info : Picture based subtitle format used on BDs/HD-DVDs
Duration : 1 h 38 min
Bit rate : 71.6 kb/s
Count of elements : 3587
Stream size : 50.5 MiB (0%)
Title : Italian-COMMENTARY-PGS
Language : Italian
Default : No
Forced : No

Menu
00:00:00.000 : en:Chapter 01
00:05:01.092 : en:Chapter 02
00:11:07.917 : en:Chapter 03
00:15:24.506 : en:Chapter 04
00:21:16.066 : en:Chapter 05
00:29:15.545 : en:Chapter 06
00:36:55.421 : en:Chapter 07
00:44:02.806 : en:Chapter 08
00:50:12.634 : en:Chapter 09
00:57:52.510 : en:Chapter 10
01:03:51.702 : en:Chapter 11
01:06:49.755 : en:Chapter 12
01:10:12.082 : en:Chapter 13
01:15:40.452 : en:Chapter 14
01:23:45.311 : en:Chapter 15
01:29:48.216 : en:Chapter 16





游客,如果您要查看本帖隱藏內容請回復,如果您想無廣告、免回復、下載附件免影視幣請開通VIP:VIP傳送門


古哥影視論壇www.978960.live 高清電影,藍光電影,最新電影,電影天堂,影視帝國,人人影視
推薦
發表于 2019-12-30 00:26:52 | 只看該作者
感謝樓主的分享啊!
古哥影視論壇www.978960.live 高清電影,藍光電影,最新電影,電影天堂,影視帝國,人人影視
回復 支持 1 反對 0

使用道具 舉報

推薦
發表于 2019-12-30 00:06:52 | 只看該作者
感謝樓主分享
古哥影視論壇www.978960.live 高清電影,藍光電影,最新電影,電影天堂,影視帝國,人人影視
回復 支持 1 反對 0

使用道具 舉報

推薦
發表于 2019-12-30 00:05:52 | 只看該作者
不錯 看看怎么樣
古哥影視論壇www.978960.live 高清電影,藍光電影,最新電影,電影天堂,影視帝國,人人影視
回復 支持 1 反對 0

使用道具 舉報

推薦
發表于 2019-12-29 23:40:17 | 只看該作者
這東西我收了!謝謝樓主!古哥影視真好!一定要堅持下去,支持不住時請讓大家捐助





......
古哥影視論壇www.978960.live 高清電影,藍光電影,最新電影,電影天堂,影視帝國,人人影視
回復 支持 1 反對 0

使用道具 舉報

推薦
發表于 2019-12-30 19:16:36 | 只看該作者
看介紹這么好,下來看看,感謝樓主先
古哥影視論壇www.978960.live 高清電影,藍光電影,最新電影,電影天堂,影視帝國,人人影視
回復 支持 1 反對 0

使用道具 舉報

推薦
發表于 2019-12-30 19:46:10 | 只看該作者
怮 女 資 原【 w w w . u c 5 . m e 】籮 利 資 原【 w w w . u c 5  . x y z
古哥影視論壇www.978960.live 高清電影,藍光電影,最新電影,電影天堂,影視帝國,人人影視
回復 支持 1 反對 0

使用道具 舉報

7#
發表于 2019-12-30 00:42:31 | 只看該作者
謝謝樓主分享
古哥影視論壇www.978960.live 高清電影,藍光電影,最新電影,電影天堂,影視帝國,人人影視
回復 支持 反對

使用道具 舉報

8#
發表于 2019-12-30 00:58:17 | 只看該作者
回復下載,感謝分享。
古哥影視論壇www.978960.live 高清電影,藍光電影,最新電影,電影天堂,影視帝國,人人影視
回復 支持 反對

使用道具 舉報

9#
發表于 2019-12-30 03:37:54 | 只看該作者
no bad,thanks for share
古哥影視論壇www.978960.live 高清電影,藍光電影,最新電影,電影天堂,影視帝國,人人影視
回復 支持 反對

使用道具 舉報

10#
發表于 2019-12-30 08:17:28 | 只看該作者

樓主,我太崇拜你了!從影視帝國到現在的古哥影視,一直都是最好的,沒有之一。
古哥影視論壇www.978960.live 高清電影,藍光電影,最新電影,電影天堂,影視帝國,人人影視
回復 支持 反對

使用道具 舉報

11#
發表于 2019-12-30 08:37:35 | 只看該作者
謝謝樓主分享精彩電影
古哥影視論壇www.978960.live 高清電影,藍光電影,最新電影,電影天堂,影視帝國,人人影視
回復 支持 反對

使用道具 舉報

12#
發表于 2019-12-30 09:10:21 | 只看該作者
樓主發貼辛苦了,謝謝樓主分享!我覺得古哥影視的電影是最值得收藏的!
古哥影視論壇www.978960.live 高清電影,藍光電影,最新電影,電影天堂,影視帝國,人人影視
回復 支持 反對

使用道具 舉報

13#
發表于 2019-12-30 09:10:46 | 只看該作者
感謝樓主分享
古哥影視論壇www.978960.live 高清電影,藍光電影,最新電影,電影天堂,影視帝國,人人影視
回復 支持 反對

使用道具 舉報

14#
發表于 2019-12-30 09:10:51 | 只看該作者
感謝樓主發片~~~~~~~~~~
古哥影視論壇www.978960.live 高清電影,藍光電影,最新電影,電影天堂,影視帝國,人人影視
回復 支持 反對

使用道具 舉報

15#
發表于 2019-12-30 09:21:15 | 只看該作者
感謝樓主分享
古哥影視論壇www.978960.live 高清電影,藍光電影,最新電影,電影天堂,影視帝國,人人影視
回復 支持 反對

使用道具 舉報

16#
發表于 2019-12-30 10:13:56 | 只看該作者

樓主太厲害了!樓主,I*老*虎*U!古哥影視絕對是電影愛好的天堂!
古哥影視論壇www.978960.live 高清電影,藍光電影,最新電影,電影天堂,影視帝國,人人影視
回復 支持 反對

使用道具 舉報

17#
發表于 2019-12-30 10:37:15 | 只看該作者

既然你誠信誠意的推薦了,那我就勉為其難的看看吧!愛電影,愛生活古哥影視不走平凡路。
古哥影視論壇www.978960.live 高清電影,藍光電影,最新電影,電影天堂,影視帝國,人人影視
回復 支持 反對

使用道具 舉報

18#
發表于 2019-12-30 11:02:39 | 只看該作者
樓主發貼辛苦了,謝謝樓主分享!我覺得古哥影視的電影是最值得收藏的!
古哥影視論壇www.978960.live 高清電影,藍光電影,最新電影,電影天堂,影視帝國,人人影視
回復 支持 反對

使用道具 舉報

19#
發表于 2019-12-30 11:42:09 | 只看該作者
感謝分享,下載咯
古哥影視論壇www.978960.live 高清電影,藍光電影,最新電影,電影天堂,影視帝國,人人影視
回復 支持 反對

使用道具 舉報

20#
發表于 2019-12-30 11:47:45 | 只看該作者
RE: [喪尸樂園2]2019.1080p.BluRay.REMUX.AVC.DTS-HD.MA.5.1-FGT 25.99GB [修改]
古哥影視論壇www.978960.live 高清電影,藍光電影,最新電影,電影天堂,影視帝國,人人影視
回復 支持 反對

使用道具 舉報

懶得打字嘛,點擊右側快捷回復->
您需要登錄后才可以回帖 登錄 | 注冊(分享大片)

本版積分規則

影視帝國免責聲明
本站提供網上學習交流和自由討論使用,所有資源均來自互聯網公開渠道,發布和個人言論并不代表本站立場,本站不負任何責任.
如發現有侵權行為,請與我們聯系.我們將立刻從網站上刪除,并向所有持版權者致最深歉意.
影視帝國論壇已經安全運行

QQ|小黑屋|手機版|Archiver|古哥論壇

GMT+8, 2020-1-19 07:23 , Processed in 0.241627 second(s), 20 queries , Gzip On.

Powered by Discuz! X3.4

© 2001-2017 Comsenz Inc.

快速回復 返回頂部 返回列表
王者捕鱼官网下载游戏下载