古哥論壇

 找回密碼
 注冊(分享大片)
查看: 1521|回復: 85
打印 上一主題 下一主題

[小丑]Joker.2019.1080p.BluRay.REMUX.AVC.DTS-HD.MA.TrueHD.7.1.Atmos-FGT 26GB

[復制鏈接]
跳轉到指定樓層
1#
發表于 2019-12-22 15:44:52 | 只看該作者 回帖獎勵 |倒序瀏覽 |閱讀模式
4K天堂


◎譯  名 小丑 / Joker Origin Movie / Romeo / 小丑起源電影:羅密歐
◎片  名 Joker
◎年  代 2019
◎產  地 美國
◎類  別 劇情 / 驚悚 / 犯罪
◎語  言 英語
◎上映日期 2019-08-31(威尼斯電影節) / 2019-10-04(美國)
◎IMDb評分 9.6/10 from 11147 users
◎IMDb鏈接 http://www.imdb.com/title/tt7286456
◎豆瓣評分 9.3/10 from 3694 users
◎藍光高清電影 http://www.4ktt.com/
◎片  長 122分鐘
◎導  演 托德·菲利普斯 Todd Phillips
◎編  劇 托德·菲利普斯 Todd Phillips / 斯科特·西爾弗 Scott Silver
◎主  演 杰昆·菲尼克斯 Joaquin Phoenix
      羅伯特·德尼羅 Robert De Niro
      馬克·馬龍 Marc Maron
      莎姬·貝茲 Zazie Beetz
      謝·惠根姆 Shea Whigham
      弗蘭西絲·康羅伊 Frances Conroy
      布萊恩·考倫 Bryan Callen
      布萊恩·泰里·亨利 Brian Tyree Henry
      布萊特·卡倫 Brett Cullen
      道格拉斯·霍奇斯 Douglas Hodges
      格倫·弗萊施勒 Glenn Fleshler
      比爾·坎普 Bill Camp
      喬什·帕斯 Josh Pais
      但丁·佩雷拉-奧爾森 Dante Pereira-Olson
      瑪麗·凱特·馬拉特 Mary Kate Malat
      邁克爾·本茨 Michael Benz
      莎瓏·華盛頓 Sharon Washington
      桑德拉·詹姆斯 Sondra James
      托尼·赫德 Tony Head
      曼德拉·貝拉米 Mandela Bellamy
      喬·奧克曼 Joe Ochman
      卡爾·倫德施泰特 Carl Lundstedt
      米克·奧羅克 Mick O'Rourke
      大衛·吉布森 David Gibson
      伊萬·羅薩多 Evan Rosado
      安妮·比薩比亞 Annie Pisapia
      布萊斯·科里根 Blaise Corrigan
      喬恩·道格拉斯·雷尼 Jon Douglas Rainey
      艾恩斯利·丹恩 Aynsleigh Dann
      杰森·約翰·奇卡萊塞 Jason John Cicalese
      Jolie Chan
      Isabella Ferreira
      Gary Gulman

◎簡  介
  電影《小丑》以同名DC漫畫角色為基礎,由華納兄弟影業公司發行,計劃于2019年10月4日上映。本片的故事將獨立于DCEU之外,故事背景設置在20世紀80年代,講述了一位生活陷入困境的脫口秀喜劇演員漸漸走向精神的崩潰,在哥譚市開始了瘋狂的犯罪生涯,最終成為了蝙蝠俠的宿敵“小丑”的故事。
  本片由《宿醉》的導演托德菲利普斯執導,他與編劇斯科特西爾弗一起撰寫了編劇。杰昆菲尼克斯本片中飾演主人公“小丑”,其他的主演包括羅伯特德尼羅、莎姬貝茲、馬克馬龍等。


◎獲獎情況
  第76屆威尼斯電影節(2019)
  主競賽單元 金獅獎 托德·菲利普斯
Video
ID : 1
Format : AVC
Format/Info : Advanced Video Codec
Format profile : [email protected]
Format settings : CABAC / 4 Ref Frames
Format settings, CABAC : Yes
Format settings, Reference frames : 4 frames
Codec ID : V_MPEG4/ISO/AVC
Duration : 2 h 1 min
Bit rate mode : Variable
Bit rate : 19.8 Mb/s
Maximum bit rate : 22.0 Mb/s
Width : 1 920 pixels
Height : 1 080 pixels
Display aspect ratio : 16:9
Frame rate mode : Constant
Frame rate : 23.976 (24000/1001) FPS
Color space : YUV
Chroma subsampling : 4:2:0
Bit depth : 8 bits
Scan type : Progressive
Bits/(Pixel*Frame) : 0.398
Stream size : 16.8 GiB (65%)
Title : Joker.2019.1080p.BluRay.REMUX.AVC.DTS-HD.MA.TrueHD.7.1.Atmos-FGT
Language : English
Default : No
Forced : No

Audio #1
ID : 2
Format : MLP FBA 16-ch
Format/Info : Meridian Lossless Packing FBA with 16-channel presentation
Commercial name : Dolby TrueHD with Dolby Atmos
Codec ID : A_TRUEHD
Duration : 2 h 1 min
Bit rate mode : Variable
Bit rate : 3 819 kb/s
Maximum bit rate : 7 158 kb/s
Channel(s) : 8 channels
Channel layout : L R C LFE Ls Rs Lb Rb
Sampling rate : 48.0 kHz
Frame rate : 1 200.000 FPS (40 SPF)
Compression mode : Lossless
Stream size : 3.25 GiB (12%)
Title : Joker.2019.1080p.BluRay.REMUX.AVC.DTS-HD.MA.TrueHD.7.1.Atmos-FGT
Language : English
Default : Yes
Forced : No
Number of dynamic objects : 15
Bed channel count : 1 channel
Bed channel configuration : LFE

Audio #2
ID : 3
Format : DTS XLL
Format/Info : Digital Theater Systems
Commercial name : DTS-HD Master Audio
Codec ID : A_DTS
Duration : 2 h 1 min
Bit rate mode : Variable
Bit rate : 4 065 kb/s
Channel(s) : 8 channels
Channel layout : C L R LFE Lb Rb Lss Rss
Sampling rate : 48.0 kHz
Frame rate : 93.750 FPS (512 SPF)
Bit depth : 24 bits
Compression mode : Lossless
Stream size : 3.46 GiB (13%)
Title : Joker.2019.1080p.BluRay.REMUX.AVC.DTS-HD.MA.TrueHD.7.1.Atmos-FGT
Language : English
Default : No
Forced : No

Audio #3
ID : 4
Format : AC-3
Format/Info : Audio Coding 3
Commercial name : Dolby Digital
Codec ID : A_AC3
Duration : 2 h 1 min
Bit rate mode : Constant
Bit rate : 640 kb/s
Channel(s) : 6 channels
Channel layout : L R C LFE Ls Rs
Sampling rate : 48.0 kHz
Frame rate : 31.250 FPS (1536 SPF)
Bit depth : 16 bits
Compression mode : Lossy
Stream size : 558 MiB (2%)
Title : Joker.2019.1080p.BluRay.REMUX.AVC.DTS-HD.MA.TrueHD.7.1.Atmos-FGT
Language : English
Service kind : Complete Main
Default : No
Forced : No

Audio #4
ID : 5
Format : AC-3
Format/Info : Audio Coding 3
Commercial name : Dolby Digital
Codec ID : A_AC3
Duration : 2 h 1 min
Bit rate mode : Constant
Bit rate : 448 kb/s
Channel(s) : 6 channels
Channel layout : L R C LFE Ls Rs
Sampling rate : 48.0 kHz
Frame rate : 31.250 FPS (1536 SPF)
Bit depth : 16 bits
Compression mode : Lossy
Stream size : 390 MiB (1%)
Title : Joker.2019.1080p.BluRay.REMUX.AVC.DTS-HD.MA.TrueHD.7.1.Atmos-FGT
Language : English
Service kind : Complete Main
Default : No
Forced : No

Audio #5
ID : 6
Format : AC-3
Format/Info : Audio Coding 3
Commercial name : Dolby Digital
Codec ID : A_AC3
Duration : 2 h 1 min
Bit rate mode : Constant
Bit rate : 448 kb/s
Channel(s) : 6 channels
Channel layout : L R C LFE Ls Rs
Sampling rate : 48.0 kHz
Frame rate : 31.250 FPS (1536 SPF)
Bit depth : 16 bits
Compression mode : Lossy
Stream size : 390 MiB (1%)
Title : Joker.2019.1080p.BluRay.REMUX.AVC.DTS-HD.MA.TrueHD.7.1.Atmos-FGT
Language : English
Service kind : Complete Main
Default : No
Forced : No

Audio #6
ID : 7
Format : AC-3
Format/Info : Audio Coding 3
Commercial name : Dolby Digital
Codec ID : A_AC3
Duration : 2 h 1 min
Bit rate mode : Constant
Bit rate : 448 kb/s
Channel(s) : 6 channels
Channel layout : L R C LFE Ls Rs
Sampling rate : 48.0 kHz
Frame rate : 31.250 FPS (1536 SPF)
Bit depth : 16 bits
Compression mode : Lossy
Stream size : 390 MiB (1%)
Title : Joker.2019.1080p.BluRay.REMUX.AVC.DTS-HD.MA.TrueHD.7.1.Atmos-FGT
Language : French
Service kind : Complete Main
Default : No
Forced : No

Audio #7
ID : 8
Format : AC-3
Format/Info : Audio Coding 3
Commercial name : Dolby Digital
Codec ID : A_AC3
Duration : 2 h 1 min
Bit rate mode : Constant
Bit rate : 448 kb/s
Channel(s) : 6 channels
Channel layout : L R C LFE Ls Rs
Sampling rate : 48.0 kHz
Frame rate : 31.250 FPS (1536 SPF)
Bit depth : 16 bits
Compression mode : Lossy
Stream size : 390 MiB (1%)
Title : Joker.2019.1080p.BluRay.REMUX.AVC.DTS-HD.MA.TrueHD.7.1.Atmos-FGT
Language : Spanish
Service kind : Complete Main
Default : No
Forced : No

Audio #8
ID : 9
Format : AC-3
Format/Info : Audio Coding 3
Commercial name : Dolby Digital
Codec ID : A_AC3
Duration : 2 h 1 min
Bit rate mode : Constant
Bit rate : 448 kb/s
Channel(s) : 6 channels
Channel layout : L R C LFE Ls Rs
Sampling rate : 48.0 kHz
Frame rate : 31.250 FPS (1536 SPF)
Bit depth : 16 bits
Compression mode : Lossy
Stream size : 390 MiB (1%)
Title : Joker.2019.1080p.BluRay.REMUX.AVC.DTS-HD.MA.TrueHD.7.1.Atmos-FGT
Language : Portuguese
Service kind : Complete Main
Default : No
Forced : No

Text #1
ID : 10
Format : UTF-8
Codec ID : S_TEXT/UTF8
Codec ID/Info : UTF-8 Plain Text
Duration : 1 h 58 min
Bit rate : 45 b/s
Count of elements : 1424
Stream size : 39.0 KiB (0%)
Title : English-SRT
Language : English
Default : Yes
Forced : No

Text #2
ID : 11
Format : UTF-8
Codec ID : S_TEXT/UTF8
Codec ID/Info : UTF-8 Plain Text
Duration : 1 h 58 min
Bit rate : 55 b/s
Count of elements : 1735
Stream size : 47.9 KiB (0%)
Title : English-SDH-SRT
Language : English
Default : No
Forced : No

Text #3
ID : 12
Format : PGS
Muxing mode : zlib
Codec ID : S_HDMV/PGS
Codec ID/Info : Picture based subtitle format used on BDs/HD-DVDs
Duration : 1 h 58 min
Bit rate : 35.8 kb/s
Count of elements : 3480
Stream size : 30.2 MiB (0%)
Title : English-PGS
Language : English
Default : No
Forced : No

Text #4
ID : 13
Format : PGS
Muxing mode : zlib
Codec ID : S_HDMV/PGS
Codec ID/Info : Picture based subtitle format used on BDs/HD-DVDs
Duration : 2 h 1 min
Bit rate : 21.6 kb/s
Count of elements : 2230
Stream size : 18.7 MiB (0%)
Title : French-PGS
Language : French
Default : No
Forced : No

Text #5
ID : 14
Format : PGS
Muxing mode : zlib
Codec ID : S_HDMV/PGS
Codec ID/Info : Picture based subtitle format used on BDs/HD-DVDs
Duration : 1 h 57 min
Bit rate : 27.1 kb/s
Count of elements : 2384
Stream size : 22.7 MiB (0%)
Title : Spanish-PGS
Language : Spanish
Default : No
Forced : No

Text #6
ID : 15
Format : PGS
Muxing mode : zlib
Codec ID : S_HDMV/PGS
Codec ID/Info : Picture based subtitle format used on BDs/HD-DVDs
Duration : 1 h 57 min
Bit rate : 26.1 kb/s
Count of elements : 2404
Stream size : 21.9 MiB (0%)
Title : Portuguese-PGS
Language : Portuguese
Default : No
Forced : No

Text #7
ID : 16
Format : PGS
Muxing mode : zlib
Codec ID : S_HDMV/PGS
Codec ID/Info : Picture based subtitle format used on BDs/HD-DVDs
Duration : 1 h 31 min
Bit rate : 1 225 b/s
Count of elements : 76
Stream size : 822 KiB (0%)
Title : French-FORCED-PGS
Language : French
Default : No
Forced : No

Text #8
ID : 17
Format : PGS
Muxing mode : zlib
Codec ID : S_HDMV/PGS
Codec ID/Info : Picture based subtitle format used on BDs/HD-DVDs
Duration : 1 h 47 min
Bit rate : 1 028 b/s
Count of elements : 74
Stream size : 812 KiB (0%)
Title : Spanish-FORCED-PGS
Language : Spanish
Default : No
Forced : No

Text #9
ID : 18
Format : PGS
Muxing mode : zlib
Codec ID : S_HDMV/PGS
Codec ID/Info : Picture based subtitle format used on BDs/HD-DVDs
Duration : 1 h 47 min
Bit rate : 748 b/s
Count of elements : 60
Stream size : 591 KiB (0%)
Title : Portuguese-FORCED-PGS
Language : Portuguese
Default : No
Forced : No

Menu
00:00:00.000 : en:Chapter 01
00:10:28.794 : en:Chapter 02
00:21:01.301 : en:Chapter 03
00:28:44.973 : en:Chapter 04
00:38:14.500 : en:Chapter 05
00:46:21.570 : en:Chapter 06
00:56:19.292 : en:Chapter 07
01:04:41.168 : en:Chapter 08
01:15:41.745 : en:Chapter 09
01:26:16.045 : en:Chapter 10
01:37:02.608 : en:Chapter 11
01:45:50.385 : en:Chapter 12
01:55:44.646 : en:Chapter 13




游客,如果您要查看本帖隱藏內容請回復,如果您想無廣告、免回復、下載附件免影視幣請開通VIP:VIP傳送門


古哥影視論壇www.978960.live 高清電影,藍光電影,最新電影,電影天堂,影視帝國,人人影視
2#
發表于 2019-12-22 15:47:56 | 只看該作者
樓主太厲害了!樓主,I*老*虎*U!古哥影視絕對是電影愛好的天堂!





......
古哥影視論壇www.978960.live 高清電影,藍光電影,最新電影,電影天堂,影視帝國,人人影視
回復 支持 反對

使用道具 舉報

3#
發表于 2019-12-22 16:32:18 | 只看該作者
樓主發貼辛苦了,謝謝樓主分享!我覺得古哥影視的電影是最值得收藏的!
古哥影視論壇www.978960.live 高清電影,藍光電影,最新電影,電影天堂,影視帝國,人人影視
回復 支持 反對

使用道具 舉報

4#
發表于 2019-12-22 16:32:57 | 只看該作者
樓主發貼辛苦了,謝謝樓主分享!我覺得古哥影視的電影是最值得收藏的!
古哥影視論壇www.978960.live 高清電影,藍光電影,最新電影,電影天堂,影視帝國,人人影視
回復 支持 反對

使用道具 舉報

5#
發表于 2019-12-22 17:53:48 | 只看該作者
古哥論壇太棒了
古哥影視論壇www.978960.live 高清電影,藍光電影,最新電影,電影天堂,影視帝國,人人影視
回復 支持 反對

使用道具 舉報

6#
發表于 2019-12-22 17:54:14 | 只看該作者
感謝樓主分享!永遠支持古哥影視
古哥影視論壇www.978960.live 高清電影,藍光電影,最新電影,電影天堂,影視帝國,人人影視
回復 支持 反對

使用道具 舉報

7#
發表于 2019-12-22 19:17:41 | 只看該作者
非常棒的電影,有很好的隱喻特征,喜歡
古哥影視論壇www.978960.live 高清電影,藍光電影,最新電影,電影天堂,影視帝國,人人影視
回復 支持 反對

使用道具 舉報

8#
發表于 2019-12-22 20:33:30 | 只看該作者
謝謝大佬的分享
古哥影視論壇www.978960.live 高清電影,藍光電影,最新電影,電影天堂,影視帝國,人人影視
回復 支持 反對

使用道具 舉報

9#
發表于 2019-12-22 20:36:58 | 只看該作者

我看不錯噢 謝謝樓主!古哥影視越來越好,高清電影還得上這來下載!
古哥影視論壇www.978960.live 高清電影,藍光電影,最新電影,電影天堂,影視帝國,人人影視
回復 支持 反對

使用道具 舉報

11#
發表于 2019-12-22 21:28:10 | 只看該作者
very good,thanks for share
古哥影視論壇www.978960.live 高清電影,藍光電影,最新電影,電影天堂,影視帝國,人人影視
回復 支持 反對

使用道具 舉報

12#
發表于 2019-12-22 21:32:02 | 只看該作者
謝謝分享哦!
古哥影視論壇www.978960.live 高清電影,藍光電影,最新電影,電影天堂,影視帝國,人人影視
回復 支持 反對

使用道具 舉報

13#
發表于 2019-12-22 21:47:27 | 只看該作者
樓主發貼辛苦了,謝謝樓主分享!我覺得古哥影視的電影是最值得收藏的!
古哥影視論壇www.978960.live 高清電影,藍光電影,最新電影,電影天堂,影視帝國,人人影視
回復 支持 反對

使用道具 舉報

14#
發表于 2019-12-22 22:33:33 | 只看該作者
謝謝樓主分享
古哥影視論壇www.978960.live 高清電影,藍光電影,最新電影,電影天堂,影視帝國,人人影視
回復 支持 反對

使用道具 舉報

15#
發表于 2019-12-22 22:42:53 | 只看該作者
樓主發貼辛苦了,謝謝樓主分享!我覺得古哥影視的電影是最值得收藏的!
古哥影視論壇www.978960.live 高清電影,藍光電影,最新電影,電影天堂,影視帝國,人人影視
回復 支持 反對

使用道具 舉報

16#
發表于 2019-12-22 23:03:24 | 只看該作者
字幕版,謝謝下載
古哥影視論壇www.978960.live 高清電影,藍光電影,最新電影,電影天堂,影視帝國,人人影視
回復 支持 反對

使用道具 舉報

17#
發表于 2019-12-22 23:22:10 | 只看該作者
出片的速度很快
古哥影視論壇www.978960.live 高清電影,藍光電影,最新電影,電影天堂,影視帝國,人人影視
回復 支持 反對

使用道具 舉報

18#
發表于 2019-12-22 23:26:15 | 只看該作者
等待已久,謝謝樓主辛苦 ,無私分享
古哥影視論壇www.978960.live 高清電影,藍光電影,最新電影,電影天堂,影視帝國,人人影視
回復 支持 反對

使用道具 舉報

19#
發表于 2019-12-23 00:34:26 | 只看該作者
謝謝!非常感謝!
古哥影視論壇www.978960.live 高清電影,藍光電影,最新電影,電影天堂,影視帝國,人人影視
回復 支持 反對

使用道具 舉報

20#
發表于 2019-12-23 01:23:11 | 只看該作者
等很久了啦!!!
古哥影視論壇www.978960.live 高清電影,藍光電影,最新電影,電影天堂,影視帝國,人人影視
回復 支持 反對

使用道具 舉報

懶得打字嘛,點擊右側快捷回復->
您需要登錄后才可以回帖 登錄 | 注冊(分享大片)

本版積分規則

影視帝國免責聲明
本站提供網上學習交流和自由討論使用,所有資源均來自互聯網公開渠道,發布和個人言論并不代表本站立場,本站不負任何責任.
如發現有侵權行為,請與我們聯系.我們將立刻從網站上刪除,并向所有持版權者致最深歉意.
影視帝國論壇已經安全運行

QQ|小黑屋|手機版|Archiver|古哥論壇

GMT+8, 2020-2-5 20:18 , Processed in 0.206626 second(s), 19 queries , Gzip On.

Powered by Discuz! X3.4

© 2001-2017 Comsenz Inc.

快速回復 返回頂部 返回列表
王者捕鱼官网下载游戏下载