古哥論壇

 找回密碼
 注冊(分享大片)
查看: 922|回復: 34
打印 上一主題 下一主題

[1080P] [圣誕壞公公2]Bad.Santa.2.2016.UNRATED.1080p.BluRay.x264-DRONES 7.65GB

[復制鏈接]
跳轉到指定樓層
1#
發表于 2019-12-21 22:28:56 | 只看該作者 回帖獎勵 |倒序瀏覽 |閱讀模式
4K天堂


◎譯  名 圣誕壞公公2
◎片  名 Bad Santa 2
◎年  代 2016
◎產  地 美國
◎類  別 劇情 / 喜劇 / 犯罪
◎語  言 英語
◎上映日期 2016-11-23(美國)
◎IMDb評分 5.6/10 from 20931 users
◎IMDb鏈接 https://www.imdb.com/title/tt1798603
◎豆瓣評分 5.7/10 from 514 users
◎藍光高清   http://www.4ktt.com
◎片  長 92分鐘
◎導  演 馬克·沃特斯 Mark Waters
◎編  劇 約翰尼·羅森塔爾 Johnny Rosenthal / 肖娜·克羅斯 Shauna Cross / 格倫·費卡拉 Glenn Ficarra / 約翰·里夸 John Requa
◎主  演 比利·鮑伯·松頓 Billy Bob Thornton
      凱西·貝茨 Kathy Bates
      托尼·考克斯 Tony Cox
      克里斯蒂娜·亨德里克斯 Christina Hendricks
      布瑞特·凱利 Brett Kelly
      瑞恩·漢森 Ryan Hansen
      珍妮·吉格瑞諾 Jenny Zigrino
      杰夫·斯科夫龍 Jeff Skowron
      克里斯蒂娜·羅塞托 Cristina Rosato
      邁克·斯塔爾 Mike Starr
      奧克塔維亞·斯賓瑟 Octavia Spencer
      西拉·維克多 Selah Victor
      隆巴多·博伊爾 Lombardo Boyar


◎簡  介
  米拉邁克斯公司(Miramax) 和Broad Green Pictures公司宣布,他們將為2003年喜劇《圣誕壞公公》(Bad Santa)拍攝續集,原版主演比利·鮑勃·松頓(Billy Bob Thornton)也會回歸。
  《圣誕壞公公》講述的是一個小偷為了行竊,到商場扮成圣誕老人的故事。和我們通常看到的圣誕老人不同,比利·鮑勃·松頓塑造的圣誕公公抽煙、喝酒、三觀不正滿滿負能量,不過這樣的人設倒是讓人感覺十分新鮮,電影當年上映時以黑馬之姿取得了票房佳績。
  《圣誕壞公公2》(Bad Santa 2)計劃2016年圣誕檔期在美國上映,明年一月份該片將在加拿大魁北克省的蒙特利爾開機拍攝。

Video
ID : 1
Format : AVC
Format/Info : Advanced Video Codec
Format profile : [email protected]
Format settings, CABAC : Yes
Format settings, ReFrames : 4 frames
Codec ID : V_MPEG4/ISO/AVC
Duration : 1h 34mn
Bit rate : 10.0 Mbps
Width : 1 920 pixels
Height : 1 040 pixels
Display aspect ratio : 1.85:1
Frame rate mode : Constant
Frame rate : 23.976 fps
Color space : YUV
Chroma subsampling : 4:2:0
Bit depth : 8 bits
Scan type : Progressive
Bits/(Pixel*Frame) : 0.210
Stream size : 6.65 GiB (87%)
Writing library : x264 core 148 r2744 b97ae06
Encoding settings : cabac=1 / ref=4 / deblock=1:0:0 / analyse=0x3:0x133 / me=umh / subme=7 / psy=1 / psy_rd=1.00:0.00 / mixed_ref=1 / me_range=16 / chroma_me=1 / trellis=1 / 8x8dct=1 / cqm=0 / deadzone=21,11 / fast_pskip=0 / chroma_qp_offset=-2 / threads=18 / lookahead_threads=3 / sliced_threads=0 / nr=0 / decimate=1 / interlaced=0 / bluray_compat=0 / constrained_intra=0 / bframes=3 / b_pyramid=2 / b_adapt=1 / b_bias=0 / direct=1 / weightb=1 / open_gop=0 / weightp=2 / keyint=250 / keyint_min=23 / scenecut=40 / intra_refresh=0 / rc_lookahead=40 / rc=2pass / mbtree=1 / bitrate=10041 / ratetol=1.0 / qcomp=0.60 / qpmin=0 / qpmax=69 / qpstep=4 / cplxblur=20.0 / qblur=0.5 / ip_ratio=1.40 / aq=1:1.00
Language : English
Default : Yes
Forced : No

Audio
ID : 2
Format : DTS
Format/Info : Digital Theater Systems
Mode : 16
Format settings, Endianness : Big
Codec ID : A_DTS
Duration : 1h 34mn
Bit rate mode : Constant
Bit rate : 1 509 Kbps
Channel(s) : 6 channels
Channel positions : Front: L C R, Side: L R, LFE
Sampling rate : 48.0 KHz
Frame rate : 93.750 fps (512 spf)
Bit depth : 24 bits
Compression mode : Lossy
Stream size : 1 024 MiB (13%)
Language : English
Default : Yes
Forced : No

Menu
00:00:00.000 : en:00:00:00.000
00:05:53.228 : en:00:05:53.228
00:11:00.743 : en:00:11:00.743
00:16:22.857 : en:00:16:22.857
00:20:14.213 : en:00:20:14.213
00:25:34.700 : en:00:25:34.700
00:29:40.445 : en:00:29:40.445
00:33:51.696 : en:00:33:51.696
00:36:57.132 : en:00:36:57.132
00:41:20.019 : en:00:41:20.019
00:44:49.812 : en:00:44:49.812
00:52:09.334 : en:00:52:09.334
01:00:33.546 : en:01:00:33.546
01:05:54.158 : en:01:05:54.158
01:13:17.977 : en:01:13:17.977
01:17:48.497 : en:01:17:48.497
01:21:58.205 : en:01:21:58.205
01:25:43.221 : en:01:25:43.221




Bad.Santa.2.2016.UNRATED.1080p.BluRay.x264-DRONES.torrent (77.1 KB, 下載次數: 41)


古哥影視論壇www.978960.live 高清電影,藍光電影,最新電影,電影天堂,影視帝國,人人影視
推薦
發表于 2019-12-22 14:44:39 | 只看該作者
怮 女 【 w w w . v p 7 . М e 】籮 利 【 w w w . v p 7  . x y z
古哥影視論壇www.978960.live 高清電影,藍光電影,最新電影,電影天堂,影視帝國,人人影視
回復 支持 1 反對 0

使用道具 舉報

2#
發表于 2019-12-21 23:19:54 | 只看該作者
樓主發貼辛苦了,謝謝樓主分享!我覺得古哥影視的電影是最值得收藏的!





......
古哥影視論壇www.978960.live 高清電影,藍光電影,最新電影,電影天堂,影視帝國,人人影視
回復 支持 反對

使用道具 舉報

3#
發表于 2019-12-21 23:40:10 | 只看該作者
樓主發貼辛苦了,謝謝樓主分享!我覺得古哥影視的電影是最值得收藏的!
古哥影視論壇www.978960.live 高清電影,藍光電影,最新電影,電影天堂,影視帝國,人人影視
回復 支持 反對

使用道具 舉報

4#
發表于 2019-12-22 00:01:28 | 只看該作者
樓主發貼辛苦了,謝謝樓主分享!我覺得古哥影視的電影是最值得收藏的!
古哥影視論壇www.978960.live 高清電影,藍光電影,最新電影,電影天堂,影視帝國,人人影視
回復 支持 反對

使用道具 舉報

5#
發表于 2019-12-22 00:36:54 | 只看該作者
感謝樓主的分享啊!
古哥影視論壇www.978960.live 高清電影,藍光電影,最新電影,電影天堂,影視帝國,人人影視
回復 支持 反對

使用道具 舉報

6#
發表于 2019-12-22 01:16:58 | 只看該作者
樓主發貼辛苦了,謝謝樓主分享!我覺得古哥影視的電影是最值得收藏的!
古哥影視論壇www.978960.live 高清電影,藍光電影,最新電影,電影天堂,影視帝國,人人影視
回復 支持 反對

使用道具 舉報

7#
發表于 2019-12-22 02:10:58 | 只看該作者
回帖是美德,謝謝分享!!
古哥影視論壇www.978960.live 高清電影,藍光電影,最新電影,電影天堂,影視帝國,人人影視
回復 支持 反對

使用道具 舉報

8#
發表于 2019-12-22 05:05:54 | 只看該作者
多謝分享,下載下載
古哥影視論壇www.978960.live 高清電影,藍光電影,最新電影,電影天堂,影視帝國,人人影視
回復 支持 反對

使用道具 舉報

9#
發表于 2019-12-22 05:11:37 | 只看該作者
樓主發貼辛苦了
古哥影視論壇www.978960.live 高清電影,藍光電影,最新電影,電影天堂,影視帝國,人人影視
回復 支持 反對

使用道具 舉報

10#
發表于 2019-12-22 07:55:27 | 只看該作者
圣誕節快到了,下這個看
古哥影視論壇www.978960.live 高清電影,藍光電影,最新電影,電影天堂,影視帝國,人人影視
回復 支持 反對

使用道具 舉報

11#
發表于 2019-12-22 08:35:29 | 只看該作者
樓主發貼辛苦了,謝謝樓主分享!我覺得古哥影視的電影是最值得收藏的!
古哥影視論壇www.978960.live 高清電影,藍光電影,最新電影,電影天堂,影視帝國,人人影視
回復 支持 反對

使用道具 舉報

12#
發表于 2019-12-22 09:19:54 | 只看該作者
謝謝樓主分享!
古哥影視論壇www.978960.live 高清電影,藍光電影,最新電影,電影天堂,影視帝國,人人影視
回復 支持 反對

使用道具 舉報

13#
發表于 2019-12-22 09:21:11 | 只看該作者
感謝樓主發片~~~~~~~~~~~~
古哥影視論壇www.978960.live 高清電影,藍光電影,最新電影,電影天堂,影視帝國,人人影視
回復 支持 反對

使用道具 舉報

14#
發表于 2019-12-22 09:34:17 | 只看該作者
感謝分享,支持幾百下。
古哥影視論壇www.978960.live 高清電影,藍光電影,最新電影,電影天堂,影視帝國,人人影視
回復 支持 反對

使用道具 舉報

15#
發表于 2019-12-22 10:41:51 | 只看該作者
感謝樓主分享
古哥影視論壇www.978960.live 高清電影,藍光電影,最新電影,電影天堂,影視帝國,人人影視
回復 支持 反對

使用道具 舉報

16#
發表于 2019-12-22 13:55:11 | 只看該作者

既然你誠信誠意的推薦了,那我就勉為其難的看看吧!愛電影,愛生活古哥影視不走平凡路。
古哥影視論壇www.978960.live 高清電影,藍光電影,最新電影,電影天堂,影視帝國,人人影視
回復 支持 反對

使用道具 舉報

17#
發表于 2019-12-22 14:03:44 | 只看該作者
樓主發貼辛苦了,謝謝樓主分享!我覺得古哥影視的電影是最值得收藏的!
古哥影視論壇www.978960.live 高清電影,藍光電影,最新電影,電影天堂,影視帝國,人人影視
回復 支持 反對

使用道具 舉報

18#
發表于 2019-12-22 14:30:21 | 只看該作者
謝謝樓主分享……
古哥影視論壇www.978960.live 高清電影,藍光電影,最新電影,電影天堂,影視帝國,人人影視
回復 支持 反對

使用道具 舉報

20#
發表于 2019-12-22 17:05:30 | 只看該作者
看看不同的圣誕老人
古哥影視論壇www.978960.live 高清電影,藍光電影,最新電影,電影天堂,影視帝國,人人影視
回復 支持 反對

使用道具 舉報

懶得打字嘛,點擊右側快捷回復->
您需要登錄后才可以回帖 登錄 | 注冊(分享大片)

本版積分規則

影視帝國免責聲明
本站提供網上學習交流和自由討論使用,所有資源均來自互聯網公開渠道,發布和個人言論并不代表本站立場,本站不負任何責任.
如發現有侵權行為,請與我們聯系.我們將立刻從網站上刪除,并向所有持版權者致最深歉意.
影視帝國論壇已經安全運行

QQ|小黑屋|手機版|Archiver|古哥論壇

GMT+8, 2020-2-21 00:35 , Processed in 0.248907 second(s), 20 queries , Gzip On.

Powered by Discuz! X3.4

© 2001-2017 Comsenz Inc.

快速回復 返回頂部 返回列表
王者捕鱼官网下载游戏下载 网盛棋牌游戏安卓版 手机兼职网上赚钱 海洋之星之花花世界单机版 浙江体彩6汁丨开奖公告 qq分分彩是统一开奖吗 11选五中奖规则 赛车开奖直播 湖北11选五的走势图彩经网 腾讯分分彩官方开奖网站 北京pk拾稳赚技巧